Filmy, gry, aplikacje, muzyka i inne. Najlepsze torrenty w jednym miejscu.

Żółwik Sammy 2 [3D OU] Sammy’s avonturen 2 *2012* [1080p Half Over Under DTS HD MA 5 1 AC3 BluRay x264 LEON 345] [Dubbing PL]

Data dodania: Sierpień 21, 2016
Dodane przez: czesiu

Kategoria: Filmy 3D/4K

Ostatnia Aktualizacja: Sierpień 21, 2016

Komentarzy: 0

Ocen ten Torrent:

No votes yet.
Please wait...

Rozmiar: 7.79 GB

Seedów: 0

Leecherów: 1

Liczba pobrań: 85

Aktualizacja Trackerów: Live

ZobaczPobierz

INFO O TORRENCIE

…::: ( O Filmie: ) :::…

gatunek: Animacja, Przygodowy
produkcja: Belgia
premiera: 5 października 2012 (Polska), 15 sierpnia 2012 (świat)
reżyseria: Ben Stassen
scenariusz: Domonic Paris

…::: ( Opis: ) :::…
Tym razem dzielny żółwik wpada w sidła podstępnych łowców i trafia do luksusowego oceanarium, gdzie u boku najbardziej malowniczych mieszkańców rafy koralowej zabawia turystów z różnych zakątków globu. Niepoprawny optymista i wytrawny pirat podmorskich głębin nie byłby jednak sobą, gdyby kilka chwil po uwięzieniu nie zaczął szykować błyskotliwego planu ucieczki. Pomyślność brawurowej akcji zależy jednak od pomocy trzęsącego koralową fauną konika morskiego o nieadekwatnym do postury przydomku Big Boss, a także od wsparcia wysoce kapryśnej, acz niezawodnej drużyny pingwinów.
…::: ( Dane Tech: ) :::…
5453008500459836335802389679574 (0xB130A1B6C99D8CE6B1DE2C76EF2CCDD6)
Complete name : D:FilmyFilmy 3DSzablonWstawkaSAMMY2_3D(Leon 345)SAMMY2_3DBLUEBIRD(Leon 345).mkv
Format : Matroska
Format version : Version 2
File size : 7.79 GiB
Duration : 1h 32mn
Overall bit rate mode : Variable
Overall bit rate : 12.0 Mbps
Movie name : SAMMY2_BLUEBIRD.Title2.Bluray3DRip
Encoded date : UTC 2013-02-27 20:17:11
Writing application : mkvmerge v5.7.0 (‚The Whirlwind’) built on Jul 8 2012 20:08:51
Writing library : libebml v1.2.3 + libmatroska v1.3.0

Video
ID : 1
Format : AVC
Format/Info : Advanced Video Codec
Format profile : [email protected]
Format settings, CABAC : Yes
Format settings, ReFrames : 2 frames
Codec ID : V_MPEG4/ISO/AVC
Duration : 1h 32mn
Bit rate : 9.0 Mbps
Bit rate mode : Variable
Width : 1 920 pixels
Height : 1 080 pixels
Display aspect ratio : 16:9
Frame rate mode : Constant
Frame rate : 23.976 fps
Color space : YUV
Chroma subsampling : 4:2:0
Bit depth : 8 bits
Scan type : Progressive
Title : Rip by Leon 345
Default : Yes
Forced : No

Audio #1
ID : 2
Format : AC-3
Format/Info : Audio Coding 3
Mode extension : CM (complete main)
Format settings, Endianness : Big
Codec ID : A_AC3
Duration : 1h 32mn
Bit rate mode : Constant
Bit rate : 448 Kbps
Channel(s) : 6 channels
Channel positions : Front: L C R, Side: L R, LFE
Sampling rate : 48.0 KHz
Bit depth : 16 bits
Compression mode : Lossy
Stream size : 298 MiB (4%)
Title : AC3 5.1 dubbing PL
Language : Polish
Default : Yes
Forced : Yes

Audio #2
ID : 3
Format : AC-3
Format/Info : Audio Coding 3
Mode extension : CM (complete main)
Format settings, Endianness : Big
Codec ID : A_AC3
Duration : 1h 32mn
Bit rate mode : Constant
Bit rate : 448 Kbps
Channel(s) : 6 channels
Channel positions : Front: L C R, Side: L R, LFE
Sampling rate : 48.0 KHz
Bit depth : 16 bits
Compression mode : Lossy
Stream size : 298 MiB (4%)
Title : AC3 5.1 Orginal
Language : English
Default : No
Forced : No

Audio #3
ID : 4
Format : DTS
Format/Info : Digital Theater Systems
Format profile : MA / Core
Mode : 16
Format settings, Endianness : Big
Codec ID : A_DTS
Duration : 1h 32mn
Bit rate mode : Variable
Bit rate : 2119 / 1 509 Kbps
Channel(s) : 6 channels
Channel positions : Front: L C R, Side: L R, LFE
Sampling rate : 48.0 KHz
Bit depth : 16 bits
Compression mode : Lossless / Lossy
Title : DTS HD MA 5.1 Orginal
Language : English
Default : No
Forced : No

Text
ID : 5
Format : UTF-8
Codec ID : S_TEXT/UTF8
Codec ID/Info : UTF-8 Plain Text
Default : Yes
Forced : Yes

Menu
00:00:00.000 : en01)00:00:00:000
00:12:10.563 : en02)00:12:10:563
00:21:49.516 : en03)00:21:49:516
00:34:53.633 : en04)00:34:53:633
00:45:55.127 : en05)00:45:55:127
00:57:24.107 : en06)00:57:24:107
01:07:52.276 : en07)01:07:52:276
01:20:11.056 : en001:20:11:056

Source [thx]:
Sammy’s avonturen 2 (2D,3D) (2012) Blu-Ray 1080p – BLUEBIRD
Dubbing PL – PLDUB.720p.BluRay.x264.AC3-BiDA

SCREENY

TRAILER

LISTA PLIKÓW

Nazwa: Rozmiar:
[www.tnttorrent.info]SAMMY2_3D(Leon 345)/SAMMY2_3DBLUEBIRD(Leon 345).mkv 7.79 GB
[www.tnttorrent.info]SAMMY2_3D(Leon 345)/b9e32beda137e607b8cb2fdad9980f6c.jpg 7.79 GB
[www.tnttorrent.info]SAMMY2_3D(Leon 345)/Poradnik Leona do filmów 3D.txt 7.79 GB
[www.tnttorrent.info]SAMMY2_3D(Leon 345)/Open.txt 7.79 GB



  • KOMENTARZE

    Dodaj komentarz

    OGLĄDAJ FILMY I SERIALE ONLINE ZA DARMO!ZOBACZ!
    +