Filmy, gry, aplikacje, muzyka i inne. Najlepsze torrenty w jednym miejscu.

Zbuntowana 3D – Insurgent *2015* [mini-HD] [3D] [1080p] [BluRay] [AC3] [x264] [Lektor PL]

Data dodania: Sierpień 18, 2016
Dodane przez: czesiu

Kategoria: Filmy 3D/4K

Ostatnia Aktualizacja: Sierpień 18, 2016

Komentarzy: 0

Ocen ten Torrent:

No votes yet.
Please wait...

Rozmiar: 3.97 GB

Seedów: 0

Leecherów: 0

Liczba pobrań: 83

Aktualizacja Trackerów: Live

ZobaczPobierz

INFO O TORRENCIE

…::: ( O Filmie: ) :::…
Produkcja: USA
Gatunek: Akcja, Romans, Sci-Fi,
Premiera: 20 marca 2015 (Polska), 11 marca 2015 (świat)
Reżyseria: Robert Schwentke,
Scenariusz: Brian Duffield, Akiva Goldsman, Mark Bomback

…::: ( Opis: ) :::…
Nastoletnia Beatrice Prior w imię miłości porzuciła uporządkowany świat i teraz, naznaczona piętnem Niezgodnej, musi zmagać się z konsekwencjami swojej decyzji. Podjęta przez nią walka może mieć wpływ nie tylko na jej osobistą przyszłość, ale także wstrząsnąć posadami otaczającego świata. O ile oczywiście uda jej się udźwignąć spoczywające na niej brzemię, by w ogarniętym wojną domową świecie zdać niespodziewany i trudny egzamin dojrzałości. A jednocześnie nie utracić tego, na czym zależy jej najbardziej.
…::: ( Obsada: ) :::…
Shailene Woodley … Beatrice „Tris” Prior
Theo James … Cztery
Kate Winslet … Jeanine
Naomi Watts … Evelyn
Octavia Spencer … Johanna
Jai Courtney … Eric
Ray Stevenson … Marcus Eaton
Zoë Kravitz … Christina
…::: ( Dane Tech: ) :::…
Format : Matroska
Format version : Version 2
File size : 3.97 GiB
Duration : 1h 58mn
Overall bit rate : 4 781 Kbps
Movie name : Insurgent_3D.2015.Bluray3D Rip by Sonda [AT-Team]
Encoded date : UTC 2015-08-19 06:49:37
Writing application : mkvmerge v5.7.0 (‚The Whirlwind’) built on Jul 8 2012 20:08:51
Writing library : libebml v1.2.3 + libmatroska v1.3.0

Video
ID : 1
Format : AVC
Format/Info : Advanced Video Codec
Format profile : [email protected]
Format settings, CABAC : Yes
Format settings, ReFrames : 2 frames
Codec ID : V_MPEG4/ISO/AVC
Duration : 1h 58mn
Bit rate : 4 237 Kbps
Width : 1 920 pixels
Height : 1 080 pixels
Display aspect ratio : 2.40:1
Frame rate mode : Constant
Frame rate : 23.976 fps
Color space : YUV
Chroma subsampling : 4:2:0
Bit depth : 8 bits
Scan type : Progressive
Bits/(Pixel*Frame) : 0.085
Stream size : 3.52 GiB (89%)
Title : Rip by Sonda
Writing library : x264 core
Default : Yes
Forced : No
Color primaries : BT.709
Transfer characteristics : BT.709
Matrix coefficients : BT.709

Audio
ID : 2
Format : AC-3
Format/Info : Audio Coding 3
Mode extension : CM (complete main)
Format settings, Endianness : Big
Codec ID : A_AC3
Duration : 1h 58mn
Bit rate mode : Constant
Bit rate : 448 Kbps
Channel(s) : 6 channels
Channel positions : Front: L C R, Side: L R, LFE
Sampling rate : 48.0 KHz
Bit depth : 16 bits
Compression mode : Lossy
Delay relative to video : 112ms
Stream size : 381 MiB (9%)
Title : AC3 5.1 Lektor PL
Language : Polish
Default : Yes
Forced : No

SCREENY

LISTA PLIKÓW

Nazwa: Rozmiar:
Insurgent 3D (2015)/Insurgent 3D.2015.PL.H.O-U.miniHD.1080p.mkv 3.97 GB
Insurgent 3D (2015)/Nasza muzyka.gif 3.97 GB
Insurgent 3D (2015)/Zapraszamy !!!.jpg 3.97 GB
Insurgent 3D (2015)/15086954_1_90.jpg 3.97 GB



  • KOMENTARZE

    Dodaj komentarz

    OGLĄDAJ FILMY I SERIALE ONLINE ZA DARMO!ZOBACZ!
    +