Filmy, gry, aplikacje, muzyka i inne. Najlepsze torrenty w jednym miejscu.

Zanim się pojawiłeś – Me Before You *2016* [HC.1080p.WEBRip.XviD.DD2.0-MAXX] [Napisy PL]

Data dodania: Lipiec 21, 2016
Dodane przez: Sonque

Kategoria: Filmy Eng/Napisy

Ostatnia Aktualizacja: Lipiec 21, 2016

Komentarzy: 0

Ocen ten Torrent:

No votes yet.
Please wait...

Rozmiar: 3.37 GB

Seedów: 0

Leecherów: 0

Liczba pobrań: 129

Aktualizacja Trackerów: Live

ZobaczPobierz

INFO O TORRENCIE

Premiera: 10.06.2016
Produkcja: USA; 2016
Gatunek: Obyczajowy
Reżyseria: Thea Sharrock
Scenariusz: Michael H. Weber, Scott Neustadter, Jojo Moyes

Emilia Clarke ‚Daenerys Targaryen w „Grze o Tron’ oraz Sam Claflin Finnick w ‚Igrzyskach śmierci’ w ekranizacji bestsellerowej powieści „Zanim się pojawiłeś” autorstwa Jojo Moyes. Książka, która podbiła serca czytelniczek również w Polsce, zyskała opinię jednej z najpiękniejszych historii o miłości ostatnich lat i już doczekała się kontynuacji.

Louisa „Lou” Clark (Emilia Clarke) mieszka w niewielkim angielskim miasteczku i nie wie jeszcze, co zrobić ze swoim życiem. Ekscentryczna 26-latka próbuje sił w wielu dziedzinach, by pomóc swej rodzinie związać koniec z końcem. Zostaje opiekunką Willa Traynora (Sam Claflin), młodego, bogatego bankiera, którego losy całkowicie zmieniły się na skutek tragicznego zdarzenia sprzed dwóch lat. Niegdyś pełen energii, dziś cyniczny do szpiku kości Will, wyzbył się już nadziei na szczęście. Dziewczyna postanawia pokazać mu, że jest jeszcze inna droga.

Emilia Clarke – Louisa Clark
Sam Claflin – William Traynor

Format : AVI
Format/Info : Audio Video Interleave
Format profile : OpenDML
File size : 3.37 GiB
Duration : 1 h 49 min
Overall bit rate : 4 392 kb/s
Writing application : VirtualDubMod 1.5.10.2 (build 2540/release)
Writing library : VirtualDubMod build 2540/release

Video
ID : 0
Format : MPEG-4 Visual
Format profile : Advanced [email protected]
Format settings, BVOP : 1
Format settings, QPel : No
Format settings, GMC : No warppoints
Format settings, Matrix : Default (H.263)
Codec ID : XVID
Codec ID/Hint : XviD
Duration : 1 h 49 min
Bit rate : 4 158 kb/s
Width : 1 920 pixels
Height : 800 pixels
Display aspect ratio : 2.40:1
Frame rate : 23.976 (23976/1000) FPS
Color space : YUV
Chroma subsampling : 4:2:0
Bit depth : 8 bits
Scan type : Progressive
Compression mode : Lossy
Bits/(Pixel*Frame) : 0.113
Stream size : 3.19 GiB (95%)
Writing library : XviD 67

Audio
ID : 1
Format : AC-3
Format/Info : Audio Coding 3
Mode extension : CM (complete main)
Format settings, Endianness : Big
Codec ID : 2000
Duration : 1 h 49 min
Bit rate mode : Constant
Bit rate : 224 kb/s
Channel(s) : 2 channels
Channel positions : Front: L R
Sampling rate : 48.0 kHz
Frame rate : 31.250 FPS (1536 spf)
Compression mode : Lossy
Stream size : 176 MiB (5%)
Alignment : Split accross interleaves
Interleave, duration : 42 ms (1.00 video frame)
Interleave, preload duration : 500 ms

SCREENY

LISTA PLIKÓW

Nazwa: Rozmiar:
Me.Before.You.2016.PLSUBBED.HC.1080p..WEBRip.XviD.DD2.0-MAXX.avi 3.37 GB



  • KOMENTARZE

    Dodaj komentarz

    OGLĄDAJ FILMY I SERIALE ONLINE ZA DARMO!ZOBACZ!
    +