Filmy, gry, aplikacje, muzyka i inne. Najlepsze torrenty w jednym miejscu.

Zakochany wilczek 3D(SBS) – Alpha and Omega 3D *2010* [1080p] [Half.Side-by-Side] [x264] [Dubbing i Napisy PL]

Data dodania: Sierpień 21, 2016
Dodane przez: czesiu

Kategoria: Filmy 3D/4K

Ostatnia Aktualizacja: Sierpień 21, 2016

Komentarzy: 0

Ocen ten Torrent:

No votes yet.
Please wait...

Rozmiar: 8.02 GB

Seedów: 0

Leecherów: 1

Liczba pobrań: 55

Aktualizacja Trackerów: Live

ZobaczPobierz

INFO O TORRENCIE

…::: ( O Filmie: ) :::…
gatunek: Animacja,Komedia,Przygodowy
produkcja: Indie,USA
premiera: 5 listopada 2010 (Polska) 16 września 2010 (świat)
reżyseria: Anthony Bell,Ben Gluck
scenariusz: Steve Moore,Chris Denk

…::: ( Opis: ) :::…
Co sprawia że podróż wydaje się niesamowita? Autostop i zatrzymane samochody, złe niedźwiedzie, kłujące jeżozwierze i grające w golfa gęsi oraz kaczki. Wystarczy zapytać Kate i Humphrey, dwa wilki, które próbują dostać się do domu, po złapaniu przez strażników leśnych i wywiezieniu na drugi koniec kraju. Humphrey jest wilkiem Omega, którego dni są szybkie i dowcip zgryźliwy, pochodzi on z kochającej rodziny wilków bawiących się z wiewiórkami. Kate jest wilkiem Alpha: lubi dyscyplinę i ma gładkie oko Lary Croft ? ognia dodają jej bardzo zwinne ruchy. Te dwie zupełnie inne osobowości połączy wspólny cel, czyli powrót do domu.
…::: ( Obsada: ) :::…
Waldemar Barwiński – Humphrey
Milena Suszyńska – Kate
Joanna Pach – Lilly
Modest Ruciński – Garth
Agnieszka Kunikowska – Eve
Mirosław Zbrojewicz – Winston
Włodzimierz Bednarski – Marcel
Jakub Szydłowski – Tłuszcz
…::: ( Dane Tech: ) :::…
General
Format : Matroska
Format version : Version 2
File size : 8.02 GiB
Duration : 1h 27mn
Overall bit rate : 13.0 Mbps
Movie name : ALPHA_AND_OMEGA_3D.Bluray Rip by Sonda [AT-Team]
Encoded date : UTC 2014-05-03 11:19:12
Writing application : mkvmerge v5.7.0 (‚The Whirlwind’) built on Jul 8 2012 20:08:51
Writing library : libebml v1.2.3 + libmatroska v1.3.0

Video
ID : 1
Format : AVC
Format/Info : Advanced Video Codec
Format profile : [email protected]
Format settings, CABAC : Yes
Format settings, ReFrames : 2 frames
Codec ID : V_MPEG4/ISO/AVC
Duration : 1h 27mn
Bit rate : 10.2 Mbps
Width : 1 920 pixels
Height : 1 080 pixels
Display aspect ratio : 16:9 (1.85:1)
Frame rate mode : Constant
Frame rate : 23.976 fps
Color space : YUV
Chroma subsampling : 4:2:0
Bit depth : 8 bits
Scan type : Progressive
Bits/(Pixel*Frame) : 0.205
Stream size : 6.26 GiB (78%)
Title : Rip by Sonda
Writing library : x264 core
Default : Yes
Forced : No
Color primaries : BT.709
Transfer characteristics : BT.709
Matrix coefficients : BT.709

Audio #1
ID : 2
Format : AC-3
Format/Info : Audio Coding 3
Mode extension : CM (complete main)
Format settings, Endianness : Big
Codec ID : A_AC3
Duration : 1h 27mn
Bit rate mode : Constant
Bit rate : 448 Kbps
Channel(s) : 6 channels
Channel positions : Front: L C R, Side: L R, LFE
Sampling rate : 48.0 KHz
Bit depth : 16 bits
Compression mode : Lossy
Delay relative to video : 1s 0ms
Stream size : 282 MiB (3%)
Title : AC3 5.1 dubbing PL
Language : Polish
Default : Yes
Forced : Yes

Audio #2
ID : 3
Format : AC-3
Format/Info : Audio Coding 3
Mode extension : CM (complete main)
Format settings, Endianness : Big
Codec ID : A_AC3
Duration : 1h 27mn
Bit rate mode : Constant
Bit rate : 640 Kbps
Channel(s) : 6 channels
Channel positions : Front: L C R, Side: L R, LFE
Sampling rate : 48.0 KHz
Bit depth : 16 bits
Compression mode : Lossy
Delay relative to video : 24ms
Stream size : 403 MiB (5%)
Title : AC3 5.1
Language : English
Default : No
Forced : No

Audio #3
ID : 4
Format : DTS
Format/Info : Digital Theater Systems
Mode : 16
Format settings, Endianness : Big
Codec ID : A_DTS
Duration : 1h 27mn
Bit rate mode : Constant
Bit rate : 1 509 Kbps
Channel(s) : 6 channels
Channel positions : Front: L C R, Side: L R, LFE
Sampling rate : 48.0 KHz
Bit depth : 24 bits
Compression mode : Lossy
Delay relative to video : 903ms
Stream size : 949 MiB (12%)
Title : DTS 5.1 English
Language : English
Default : No
Forced : No

Text #1
ID : 5
Format : UTF-8
Codec ID : S_TEXT/UTF8
Codec ID/Info : UTF-8 Plain Text
Title : Napisy 2D
Language : Polish
Default : No
Forced : No

Text #2
ID : 6
Format : PGS
Muxing mode : zlib
Codec ID : S_HDMV/PGS
Codec ID/Info : The same subtitle format used on BDs/HD-DVDs
Title : Napisy 3D
Language : Polish
Default : No
Forced : No

SCREENY

LISTA PLIKÓW

Nazwa: Rozmiar:
[aletorrenty.pl] ALPHA_AND_OMEGA_3D(Sonda)/Alpha_And_Omega_3D(Sonda).mkv 8.02 GB
[aletorrenty.pl] ALPHA_AND_OMEGA_3D(Sonda)/zakochany_rpqsxpr.jpg 8.02 GB
[aletorrenty.pl] ALPHA_AND_OMEGA_3D(Sonda)/AT-TEAM old movie.jpg 8.02 GB
[aletorrenty.pl] ALPHA_AND_OMEGA_3D(Sonda)/Alpha_And_Omega_3D(Sonda).srt 8.02 GB
[aletorrenty.pl] ALPHA_AND_OMEGA_3D(Sonda)/Alpha_And_Omega_3D(Sonda).txt 8.02 GB
[aletorrenty.pl] ALPHA_AND_OMEGA_3D(Sonda)/AT-TEAM.jpg 8.02 GB
[aletorrenty.pl] ALPHA_AND_OMEGA_3D(Sonda)/Read iNFO.txt 8.02 GB
[aletorrenty.pl] ALPHA_AND_OMEGA_3D(Sonda)/Ale Torrenty Team enjoy !.url 8.02 GB



  • KOMENTARZE

    Dodaj komentarz

    OGLĄDAJ FILMY I SERIALE ONLINE ZA DARMO!ZOBACZ!
    +