Filmy, gry, aplikacje, muzyka i inne. Najlepsze torrenty w jednym miejscu.

Stalingrad 3D(OU) *2013* [mini-HD] [1080p] [Half] [Over-Under] [DualAudio] [AC3] [BluRay] [x264-SONDA] [Lektor i Napisy PL] [AT-TEAM]

Data dodania: Wrzesień 19, 2016
Dodane przez: czesiu

Kategoria: Filmy 3D/4K

Ostatnia Aktualizacja: Wrzesień 19, 2016

Komentarzy: 0

Ocen ten Torrent:

No votes yet.
Please wait...

Rozmiar: 3.98 GB

Seedów: 0

Leecherów: 0

Liczba pobrań: 169

Aktualizacja Trackerów: Live

ZobaczPobierz

INFO O TORRENCIE

…::: ( O Filmie: ) :::…
Produkcja: Rosja
Gatunek: Wojenny
Premiera: 29 listopada 2013 (Polska), 10 października 2013 (świat)
Reżyseria: Fedor Bondarchuk
Scenariusz: Ilya TilkinSergey Snezhkin
Zdjęcia: Maksim Osadchiy-Korytkovskiy
Muzyka: Angelo Badalamenti

…::: ( Opis: ) :::…
Listopad 1942 roku, Stalingrad. Grupa rosyjskich żołnierzy zaciekle broni strategicznego budynku, stawiając opór bezwzględnej niemieckiej armii. Między nimi a mieszkającymi w zniszczonym mieście dwiema kobietami tworzą się bardzo silne więzi. Wokół toczy się najkrwawsza bitwa w historii ludzkości, która rani wszystkich. Dramat przeżywają żołnierze, cywile, ale również i niemieccy najeźdźcy. Lecz nawet w najstraszniejszej bitwie jest miejsce na miłość i nadzieję.

…::: ( Dane Tech: ) :::…
General

Format : Matroska
Format version : Version 2
File size : 3.98 GiB
Duration : 2h 10mn
Overall bit rate : 4 357 Kbps
Movie name : STALINGRAD_2013_3D_BLUEBIRD.BlurayRip by Leon 345
Encoded date : UTC 2013-12-08 06:44:37
Writing application : mkvmerge v5.7.0 (‚The Whirlwind’) built on Jul 8 2012 20:08:51
Writing library : libebml v1.2.3 + libmatroska v1.3.0

Video
ID : 1
Format : AVC
Format/Info : Advanced Video Codec
Format profile : [email protected]
Format settings, CABAC : Yes
Format settings, ReFrames : 2 frames
Codec ID : V_MPEG4/ISO/AVC
Duration : 2h 10mn
Bit rate : 3 887 Kbps
Width : 1 920 pixels
Height : 1 080 pixels
Display aspect ratio : 16:9 (2.40:1)
Frame rate mode : Constant
Frame rate : 23.976 fps
Color space : YUV
Chroma subsampling : 4:2:0
Bit depth : 8 bits
Scan type : Progressive
Bits/(Pixel*Frame) : 0.078
Stream size : 3.55 GiB (89%)
Title : Rip by Leon 345
Writing library : x264 core
Default : Yes
Forced : No
Color primaries : BT.709
Transfer characteristics : BT.709
Matrix coefficients : BT.709

Audio
ID : 2
Format : AC-3
Format/Info : Audio Coding 3
Mode extension : CM (complete main)
Format settings, Endianness : Big
Codec ID : A_AC3
Duration : 2h 10mn
Bit rate mode : Constant
Bit rate : 384 Kbps
Channel(s) : 6 channels
Channel positions : Front: L C R, Side: L R, LFE
Sampling rate : 48.0 KHz
Bit depth : 16 bits
Compression mode : Lossy
Stream size : 359 MiB (9%)
Language : Russian
=====================================
Default : Yes
Forced : No

Menu
00:00:00.000 : en:(01)00:00:00:000
00:15:37.436 : en:(02)00:15:37:436
00:31:59.334 : en:(03)00:31:59:334
00:46:05.887 : en:(04)00:46:05:887
01:03:22.047 : en:(05)01:03:22:047
01:20:44.840 : en:(06)01:20:44:840
01:35:53.162 : en:(07)01:35:53:162
01:51:11.789 : en:(08)01:51:11:789

Source [thx]:
A/V- Stalingrad 2013 BluRay [2D/3D] 1080p AVC DTS-HD MA 5.1 BLUEBIRD

SCREENY

LISTA PLIKÓW

Nazwa: Rozmiar:
[www.tnttorrent.info]STALINGRAD_2013_3D_SUBBED.PL(Leon 345)/STALINGRAD_2013_3D_SUBBED.PL(Leon 345).mkv 3.98 GB
[www.tnttorrent.info]STALINGRAD_2013_3D_SUBBED.PL(Leon 345)/91577_front.jpg 3.98 GB
[www.tnttorrent.info]STALINGRAD_2013_3D_SUBBED.PL(Leon 345)/Open.txt 3.98 GB



  • KOMENTARZE

    Dodaj komentarz

    OGLĄDAJ FILMY I SERIALE ONLINE ZA DARMO!ZOBACZ!
    +