Filmy, gry, aplikacje, muzyka i inne. Najlepsze torrenty w jednym miejscu.

Paranormal Activity: Naznaczeni – Paranormal Activity: The Marked Ones *2014* THETRiCAL [BRRip.XviD-Złośnicaa] [Lektor PL]

Data dodania: Październik 1, 2017
Dodane przez: kakarotto5555

Kategoria: Filmy XviD/DivX, Filmy z Lektorem

Ostatnia Aktualizacja: Październik 1, 2017

Komentarzy: 0

Ocen ten Torrent:

No votes yet.
Please wait...

Rozmiar: 699.66 MB

Seedów: 0

Leecherów: 1

Liczba pobrań: 31

Aktualizacja Trackerów: Live

ZobaczPobierz

INFO O TORRENCIE

( Tutaj wstaw informcje tj. Produkcja, Gatunek, Data Premiery, Reżyseria, Scenariusz etc … )produkcja: USA
premiera: 31 grudnia 2013 – Świat
gatunek: Horror
reżyseria: Christopher Landon
scenariusz: Christopher Landon

( Tutaj wstaw opis Filmu, Albumu Muzycznego czy innego Torrenta )Paranormal Activity: Naznaczeni wkracza na nowy poziom tak, że aż krzyczysz. Przełomowa seria horrorów powraca z niesamowitym impetem i zawziętością i domaga się kolejnej ofiary. Siedemnastoletni Jesse słyszy przerażające odgłosy dobiegające z sąsiedniego mieszkania. Lecz kiedy skierowuje tam swoja kamerę, chcąc odkryć źródło ich pochodzenia, styka się z potężnym antycznym złem, które nie spocznie, póki nie zawładnie jego duszą.

( Tutaj wstaw spis Bohaterów wystepujących w Filmie czy Serialu, w przypadku innego materiału możesz usunąc ten nagłówek )Andrew Jacobs … Jesse
Jorge Diaz … Hector
Gabrielle Walsh … Marisol
Renee Victor … Babcia Jessego

( Tutaj wstaw dane techniczne twojego Torrenta )ID : 0
Format : MPEG-4 Visual
Format profile : Advanced [email protected]
Format settings, BVOP : 1
Format settings, QPel : No
Format settings, GMC : No warppoints
Format settings, Matrix : Default (H.263)
Muxing mode : Packed bitstream
Codec ID : XVID
Codec ID/Hint : XviD
Duration : 1h 24mn
Bit rate : 962 Kbps
Width : 640 pixels
Height : 352 pixels
Display aspect ratio : 16:9
Frame rate : 23.976 fps
Color space : YUV
Chroma subsampling : 4:2:0
Bit depth : 8 bits
Scan type : Progressive
Compression mode : Lossy
Bits/(Pixel*Frame) : 0.178
Stream size : 578 MiB (83%)
Writing library : XviD 1.2.1 (UTC 2008-12-04)

Audio
ID : 1
Format : AC-3
Format/INFO : Audio Coding 3
Mode extension : CM (complete main)
Format settings, Endianness : Big
Codec ID : 2000
Duration : 1h 24mn
Bit rate mode : Constant
Bit rate : 192 Kbps
Channel count : 2 channels
Channel positions : Front: L R
Sampling rate : 48.0 KHz
Bit depth : 16 bits
Compression mode : Lossy
Stream size : 115 MiB (17%)
Alignment : Aligned on interleaves
Interleave, duration : 42 ms (1.00 video frame)
Interleave, preload duration : 512 ms

SCREENY

TRAILER

LISTA PLIKÓW

Nazwa: Rozmiar:
Paranormal Activity Naznaczeni Paranormal Activity The Marked Ones 2014 THETRiCAL [BRRip.XviD-Złośnicaa][Lektor PL]/Paranormal [BRRip.XviD-Złośnicaa][Lektor PL].avi 698.96 MB
Paranormal Activity Naznaczeni Paranormal Activity The Marked Ones 2014 THETRiCAL [BRRip.XviD-Złośnicaa][Lektor PL]/Uwaga ważne,ZOBACZ NAS!!.jpg 699.65 MB
Paranormal Activity Naznaczeni Paranormal Activity The Marked Ones 2014 THETRiCAL [BRRip.XviD-Złośnicaa][Lektor PL]/Złośnicaa.png 699.66 MB
Paranormal Activity Naznaczeni Paranormal Activity The Marked Ones 2014 THETRiCAL [BRRip.XviD-Złośnicaa][Lektor PL]/! Chcesz mieć TO szybciej - zapraszamy-KLIK.url 699.66 MB
Paranormal Activity Naznaczeni Paranormal Activity The Marked Ones 2014 THETRiCAL [BRRip.XviD-Złośnicaa][Lektor PL]/Torrent downloaded from FileTracker.pl.txt 699.66 MB



  • KOMENTARZE

    Dodaj komentarz

    OGLĄDAJ FILMY I SERIALE ONLINE ZA DARMO!ZOBACZ!
    +