Filmy, gry, aplikacje, muzyka i inne. Najlepsze torrenty w jednym miejscu.

Pająki Spiders 3D [2013] [BDRip x264 HOU AC3] [Napisy PL] [ENG]

Data dodania: Sierpień 21, 2016
Dodane przez: czesiu

Kategoria: Filmy 3D/4K

Ostatnia Aktualizacja: Sierpień 21, 2016

Komentarzy: 0

Ocen ten Torrent:

No votes yet.
Please wait...

Rozmiar: 2.86 GB

Seedów: 0

Leecherów: 1

Liczba pobrań: 24

Aktualizacja Trackerów: Live

ZobaczPobierz

INFO O TORRENCIE

…::: ( O Filmie: ) :::…
gatunek:Thriller, Sci-Fi
produkcja: USA
premiera: 8 lutego 2013
reżyseria: Tibor Takács
scenariusz: Joseph Farrugia, Tibor Takács
muzyka: Joseph Conlan
zdjęcia: Lorenzo Senatore
czas: 01:29:15

…::: ( Opis: ) :::…
After a Soviet space station crashes into a New York City subway tunnel,
a species of venomous spiders is discovered, and soon they mutate to gigantic
proportions and wreak havoc on the city.

Film jak film, efekty są w 3D. Fabuła prosta , z kosmosu spada na ziemię kawałek sputnika z lat 80-ych,a na nim były zmutowane pająki, co dalej??
Zobaczcie.
…::: ( Obsada: ) :::…

Christa Campbell … Rachel
Patrick Muldoon … Jason
William Hope … .Col. Jenkins

…::: ( Dane Tech: ) :::…
Spiders (2013) 3D-alE13.mkv
Format : Matroska
Format version : Version 2
File size : 2.83 GiB
Duration : 1h 29mn
Overall bit rate : 4 532 Kbps
Movie name : Spiders (3D) 2013 (by Ash61)
Writing application : Lavf52.94.0
Writing library : Lavf52.94.0

Video
ID : 1
Format : AVC
Format/Info : Advanced Video Codec
Format profile : [email protected]
Format settings, CABAC : Yes
Format settings, ReFrames : 2 frames
Codec ID : V_MPEG4/ISO/AVC
Duration : 1h 29mn
Bit rate : 4 275 Kbps
Width : 1 920 pixels
Height : 1 080 pixels
Display aspect ratio : 16:9
Frame rate mode : Constant
Frame rate : 24.000 fps
Color space : YUV
Chroma subsampling : 4:2:0
Bit depth : 8 bits
Scan type : Progressive
Bits/(Pixel*Frame) : 0.086
Stream size : 2.61 GiB (92%)
Writing library : x264 core 112 r1834 a51816a

Audio
ID : 2
Format : AC-3
Format/Info : Audio Coding 3
Mode extension : CM (complete main)
Format settings, Endianness : Big
Codec ID : A_AC3
Duration : 1h 29mn
Bit rate mode : Constant
Bit rate : 256 Kbps
Channel(s) : 6 channels
Channel positions : Front: L C R, Side: L R, LFE
Sampling rate : 48.0 KHz
Bit depth : 16 bits
Compression mode : Lossy
Stream size : 163 MiB (6%)

Text
ID : 3
Format : VobSub
Muxing mode : zlib
Codec ID : S_VOBSUB
Codec ID/Info : The same subtitle format used on DVDs
Language : Polish

SCREENY

LISTA PLIKÓW

Nazwa: Rozmiar:
Spiders 3D (2013)-alE13/Sub/Spiders (2013) 3D-alE13.sub 5.85 MB
Spiders 3D (2013)-alE13/Sub/Spiders (2013) 3D-alE13.xml 5.98 MB
Spiders 3D (2013)-alE13/Sub/Spiders (2013) 3D-alE13.srt 6.03 MB
Spiders 3D (2013)-alE13/Sub/Spiders (2013) 3D-alE13.idx 6.07 MB
Spiders 3D (2013)-alE13/Spiders (2013) 3D-alE13.mkv 2.83 GB
Spiders 3D (2013)-alE13/Sample.mkv 2.86 GB
Spiders 3D (2013)-alE13/vlcsnap-2013-02-27-17h56m11s187.jpg 2.86 GB
Spiders 3D (2013)-alE13/3.jpg 2.86 GB
Spiders 3D (2013)-alE13/vlcsnap-2013-02-27-17h55m57s58.jpg 2.86 GB
Spiders 3D (2013)-alE13/2.jpg 2.86 GB
Spiders 3D (2013)-alE13/vlcsnap-2013-02-27-17h57m28s189.jpg 2.86 GB
Spiders 3D (2013)-alE13/vlcsnap-2013-02-27-17h57m59s235.jpg 2.86 GB
Spiders 3D (2013)-alE13/vlcsnap-2013-02-27-17h55m50s233.jpg 2.86 GB
Spiders 3D (2013)-alE13/1.jpg 2.86 GB



  • KOMENTARZE

    Dodaj komentarz

    OGLĄDAJ FILMY I SERIALE ONLINE ZA DARMO!ZOBACZ!
    +