Filmy, gry, aplikacje, muzyka i inne. Najlepsze torrenty w jednym miejscu.

O mnie się nie martw S02E12 [720p] [WEB-DL] [x264] [PL]

Data dodania: Sierpień 15, 2016
Dodane przez: tomwa

Kategoria: Seriale Polskie, TV/Seriale

Ostatnia Aktualizacja: Sierpień 15, 2016

Komentarzy: 0

Ocen ten Torrent:

No votes yet.
Please wait...

Rozmiar: 838.26 MB

Seedów: 0

Leecherów: 0

Liczba pobrań: 4

Aktualizacja Trackerów: Live

ZobaczPobierz

INFO O TORRENCIE

…::: ( O Serialu: ) :::…
Gatunek: Obyczajowy, Komedia
Kraj: Polska
Produkcja: Michał Kwieciński
Scenariusz: Aneta Głowska, Katarzyna Leżeńska
Długość odcinka: 44 min.

…::: ( Opis: ) :::…
O mnie się nie martw” to ciepły, pełen humoru i emocji serial komediowy, w którym zderzają się dwa światy: zwykłych ludzi żyjących od pierwszego do pierwszego oraz bogatych prawników. Główna bohaterka to dwukrotna rozwódka z dwójką dzieci, bez wykształcenia i bez pracy, która mówi prawdę prosto w oczy. Los łączy ją z młodym, zdolnym adwokatem, który traktuje życie jak wieczną imprezę.

…::: ( Obsada: ) :::…
Stefan Pawłowski – Marcin Kaszuba
*Joanna Kulig – Iga Małecka
*Katarzyna Zielińska – Laura Curyło
*Katarzyna Maciąg – Ewa, przyjaciółka Igi
*Aleksandra Domańska – Joanna, partnerka Marcina
*Andrzej Zieliński – Wiktor Zarzycki, szef Marcina
*Paweł Domagała – Krzysztof, były mąż Igi

…::: ( Dane Tech: ) :::…

PRZYKŁADOWE DANE

Format : AVI
Format/Info : Audio Video Interleave
File size : 349 MiB
Duration : 46mn 20s
Overall bit rate : 1 054 Kbps

Video
ID : 0
Format : MPEG-4 Visual
Format profile : Advanced [email protected]
Format settings, BVOP : 2
Format settings, QPel : No
Format settings, GMC : No warppoints
Format settings, Matrix : Default (H.263)
Codec ID : XVID
Codec ID/Hint : XviD
Duration : 46mn 20s
Bit rate : 914 Kbps
Width : 640 pixels
Height : 352 pixels
Display aspect ratio : 16:9
Frame rate : 25.000 fps
Color space : YUV
Chroma subsampling : 4:2:0
Bit depth : 8 bits
Scan type : Progressive
Compression mode : Lossy
Bits/(Pixel*Frame) : 0.162
Stream size : 303 MiB (87%)
Writing library : XviD 64

Audio
ID : 1
Format : MPEG Audio
Format version : Version 1
Format profile : Layer 3
Codec ID : 55
Codec ID/Hint : MP3
Duration : 46mn 20s
Source duration : 46mn 20s
Bit rate mode : Constant
Bit rate : 128 Kbps
Channel(s) : 2 channels
Sampling rate : 44.1 KHz
Compression mode : Lossy
Stream size : 42.4 MiB (12%)
Alignment : Split accross interleaves
Interleave, duration : 26 ms (0.65 video frame)
Writing library : LAMEŞŞDˆ

SCREENY

LISTA PLIKÓW

Nazwa: Rozmiar:
O mnie się nie martw [2015] [S02E12] [720p] [WEB-DL.x264-Asphyx] [PL]/O mnie się nie martw [2015] [S02E12] [720p] [WEB-DL.x264-Asphyx] [PL].mp4 838.18 MB
O mnie się nie martw [2015] [S02E12] [720p] [WEB-DL.x264-Asphyx] [PL]/. Asphyx ..png 838.26 MB
O mnie się nie martw [2015] [S02E12] [720p] [WEB-DL.x264-Asphyx] [PL]/Downloaded from TnTTorrenT.info.txt.txt 838.26 MB



  • KOMENTARZE

    Dodaj komentarz

    OGLĄDAJ FILMY I SERIALE ONLINE ZA DARMO!ZOBACZ!
    +