Filmy, gry, aplikacje, muzyka i inne. Najlepsze torrenty w jednym miejscu.

Knightfall S01E05-06 [1080p.WEB-DL.H.264.AC3] [Lektor PL]

Data dodania: Styczeń 18, 2018
Dodane przez: kakarotto5555

Kategoria: Filmy z Lektorem, Seriale Zagraniczne, Filmy HD/Blu-Ray, Filmy x264/h264

Ostatnia Aktualizacja: Styczeń 18, 2018

Komentarzy: 0

Ocen ten Torrent:

No votes yet.
Please wait...

Rozmiar: 3.38 GB

Seedów: 0

Leecherów: 0

Liczba pobrań: 79

Aktualizacja Trackerów: Live

ZobaczPobierz

INFO O TORRENCIE

produkcja: USA
gatunek: Akcja, Przygodowy, Dramat
reżyseria: Douglas Mackinnon, David Petrarca, Metin Hüseyin
scenariusz: Don Handfield, Dominic Minghella, Richard Rayner
muzyka: Andy Price
zdjęcia: Chris Manley
czas trwania: ok. 43 min.

Założony na początku XII wieku Zakon Ubogich Rycerzy Chrystusa i Świątyni Salomona, czyli templariuszy, wyrasta na jedną z najbardziej wpływowych i majętnych organizacji kościelnych w średniowiecznej Europie. Jednym z podstawowych zadań zakonników jest ochrona Świętego Graala oraz Ziemi Świętej. Sir Landry, członek zakonu i niezwykle dzielny wojownik, stara się ze wszystkich sił przewodzić walecznym braciom i wypełniać swoją powinność wobec Boga i króla.

Tom Cullen – Landry
Pádraic Delaney – Gawain
Simon Merrells – Tancrede
Olivia Ross – Queen Joan
Julian Ovenden – William De Nogaret
Ed Stoppard – King Philip
Sabrina Bartlett – Isabella
Bobby Schofield – Parsifal
Sarah-Sofie Boussnina – Adelina
Edward Bourne – Nicholas
Akin Gazi – Rashid
Cengiz Dervis – Roland

Format : Matroska
Format version : Version 4 / Version 2
File size : 1.69 GiB
Duration : 43 min 12 s
Overall bit rate : 5 612 kb/s
Encoded date : UTC 2018-01-16 17:15:39

Video
ID : 1
Format : AVC
Format/INFO : Advanced Video Codec
Format profile : [email protected]
Format settings, CABAC : Yes
Format settings, RefFrames : 4 frames
Codec ID : V_MPEG4/ISO/AVC
Duration : 43 min 12 s
Bit rate : 5 227 kb/s
Width : 1 910 pixels
Height : 1 070 pixels
Display aspect ratio : 16:9
Frame rate mode : Constant
Frame rate : 23.976 (23976/1000) FPS
Color space : YUV
Chroma subsampling : 4:2:0
Bit depth : 8 bits
Scan type : Progressive
Bits/(Pixel*Frame) : 0.107
Stream size : 1.58 GiB (93%)
Color range : Limited
Color primaries : BT.709
Transfer characteristics : BT.709
Matrix coefficients : BT.709

Audio
ID : 2
Format : AC-3
Format/INFO : Audio Coding 3
Format settings, Endianness : Big
Codec ID : A_AC3
Duration : 43 min 12 s
Bit rate mode : Constant
Bit rate : 384 kb/s
Channel(s) : 2 channels
Channel positions : Front: L R
Sampling rate : 48.0 kHz
Frame rate : 31.250 FPS (1536 SPF)
Bit depth : 16 bits
Compression mode : Lossy
Stream size : 119 MiB (7%)
Language : Polish
Service kind : Complete Main

SCREENY

TRAILER

LISTA PLIKÓW

Nazwa: Rozmiar:
Knightfall S01E05-06 [1080p.WEB-DL.H.264.AC3] [Lektor PL]/Knightfall S01E05 - Hard Blows Will Banish the Sin [1080p.WEB-DL.H.264.AC3] [Lektor PL].mkv 1.68 GB
Knightfall S01E05-06 [1080p.WEB-DL.H.264.AC3] [Lektor PL]/Knightfall S01E06 - The Pilgrimage of Chains [1080p.WEB-DL.H.264.AC3] [Lektor PL].mkv 3.38 GB



  • KOMENTARZE

    Dodaj komentarz

    OGLĄDAJ FILMY I SERIALE ONLINE ZA DARMO!ZOBACZ!
    +