Filmy, gry, aplikacje, muzyka i inne. Najlepsze torrenty w jednym miejscu.

Jurassic World 3D *2015* [mini-HD] [3D] [1080p] [BluRay] [AC3] [x264] [Lektor PL]

Data dodania: Sierpień 18, 2016
Dodane przez: czesiu

Kategoria: Filmy 3D/4K

Ostatnia Aktualizacja: Sierpień 18, 2016

Komentarzy: 0

Ocen ten Torrent:

No votes yet.
Please wait...

Rozmiar: 3.99 GB

Seedów: 0

Leecherów: 1

Liczba pobrań: 121

Aktualizacja Trackerów: Live

ZobaczPobierz

INFO O TORRENCIE

…::: ( O Filmie: ) :::…

Produkcja: USA
Gatunek: Akcja | Przygodowy | Sci-Fi | Thriller
Czas trwania: 124 min.
Premiera: 12.06.2015 – Polska, 29.05.2015 – Świat
Reżyseria: Colin Trevorrow
Scenariusz: Derek Connolly Colin Trevorrow Rick Jaffa Amanda Silver

…::: ( Opis: ) :::…
Rok 2015. Od wydarzeń ukazanych w „Parku jurajskim” mija 22 lata. Wyspa Isla Nublar wyposażona jest w pełni działający park rozrywki, w którym żyją przywrócone za pomocą klonowania dinozaury. Pewnego dnia prowadzący eksperymenty naukowcy tworzą zupełnie nowego dinozaura, który posiada cechy dwóch gadów: welociraptora i tyranozaura. Wszystko idzie zgodnie z planem do czasu, gdy stwór wymyka się z parku.
…::: ( Obsada: ) :::…

Chris Pratt …. Owen Grady
Bryce Dallas Howard …. Claire Dearing
Irrfan Khan …. Simon Masrani
Vincent D`Onofrio …. Vic Hoskins
Ty Simpkins …. Gray
Nick Robinson …. Zach
Jake Johnson …. Lowery
Omar Sy …. Barry

…::: ( Dane Tech: ) :::…
Format : Matroska
Format version : Version 4 / Version 2
File size : 3.99 GiB
Duration : 2h 4mn
Overall bit rate : 4 597 Kbps
Encoded date : UTC 2015-09-27 15:02:54
Writing application : mkvmerge v8.3.0 (‚Over the Horizon’) 64bit
Writing library : libebml v1.3.1 + libmatroska v1.4.2

Video
ID : 1
Format : AVC
Format/Info : Advanced Video Codec
Format profile : [email protected]
Format settings, CABAC : Yes
Format settings, ReFrames : 4 frames
Codec ID : V_MPEG4/ISO/AVC
Duration : 2h 4mn
Bit rate : 4 149 Kbps
Width : 1 920 pixels
Height : 1 080 pixels
Display aspect ratio : 16:9 (OAR 2.00:1)
Frame rate mode : Constant
Frame rate : 23.976 fps
Color space : YUV
Chroma subsampling : 4:2:0
Bit depth : 8 bits
Scan type : Progressive
Stream size : 3.52 GiB (88%)
Writing library : x264
Encoding settings : cabac=1 / ref=4 / rc=2pass
Default : Yes
Forced : No

Audio
ID : 2
Format : AC-3
Format/Info : Audio Coding 3
Mode extension : CM (complete main)
Format settings, Endianness : Big
Codec ID : A_AC3
Duration : 2h 4mn
Bit rate mode : Constant
Bit rate : 448 Kbps
Channel(s) : 6 channels
Channel positions : Front: L C R, Side: L R, LFE
Sampling rate : 48.0 KHz
Bit depth : 16 bits
Compression mode : Lossy
Stream size : 399 MiB (10%)
Default : Yes
Forced : No

SCREENY

TRAILER

LISTA PLIKÓW

Nazwa: Rozmiar:
Jurassic World 3D (2015)/jurassic-world-3d.jpg 66.48 KB
Jurassic World 3D (2015)/Zapraszamy !!!.jpg 330.19 KB
Jurassic World 3D (2015)/Nasza muzyka.gif 1.42 MB
Jurassic World 3D (2015)/Jurassic World 3D.2015.PL.H.O-U.miniHD.1080p.mkv 3.99 GB



  • KOMENTARZE

    Dodaj komentarz

    OGLĄDAJ FILMY I SERIALE ONLINE ZA DARMO!ZOBACZ!
    +