Filmy, gry, aplikacje, muzyka i inne. Najlepsze torrenty w jednym miejscu.

Grobowiec Smoka: Legendary – Tomb of the Dragon 3D *2013* [BDRip.x264 H-OU Dual Audio AC3DTS] [Lektor i Napisy PL]

Data dodania: Sierpień 18, 2016
Dodane przez: czesiu

Kategoria: Filmy 3D/4K

Ostatnia Aktualizacja: Sierpień 18, 2016

Komentarzy: 0

Ocen ten Torrent:

No votes yet.
Please wait...

Rozmiar: 3.54 GB

Seedów: 0

Leecherów: 1

Liczba pobrań: 96

Aktualizacja Trackerów: Live

ZobaczPobierz

INFO O TORRENCIE

…::: ( O Filmie: ) :::…

gatunek: Przygodowy Akcja
produkcja: Chiny, Wielka Brytania
premiera: 17-05-2013
reżyseria: Eric Styles
scenariusz: Andy Briggs
muzyka: Paul Leonard-Morgan
zdjęcia: Shu Yang
czas: 01:32:29

…::: ( Opis: ) :::…
Uzdolniony kryptozoolog Travis pragnie znaleźć dowód na istnienie prehistorycznej bestii, siejącej spustoszenie
w pewnej chińskiej wiosce. Miejscowi wierzą, że to demon zabija ludzi. Travis razem z kilkoma współpracownikami
dociera w rejon, gdzie znaleziono ślady po zaginionych pracownikach firmy budowlanej. Okazuje się, że na miejscu
ma szansę spotkać się nie tylko z bestią, ale też ze swoim zaciekłym antagonistą, bezwzględnym łowcą Harkerem.

…::: ( Obsada: ) :::…
Scott Adkins, Dolph Lundgren, Yi Huang
…::: ( Dane Tech: ) :::…

Legendary – Tomb of the Dragon (2013)-alE13.mkv
Format : Matroska
Format version : Version 4 / Version 2
File size : 3.53 GiB
Duration : 1h 32mn
Overall bit rate : 5 459 Kbps
Movie name : Legendary – Tomb of the Dragon 3D (2013)_Rip.-alE13
Encoded date : UTC 2014-05-07 15:20:13
Writing application : mkvmerge v6.9.1
Writing library : libebml v1.3.0 + libmatroska v1.4.1

Video
ID : 1
Format : AVC
Format/Info : Advanced Video Codec
Format profile : [email protected]
Format settings, CABAC : Yes
Format settings, ReFrames : 2 frames
Codec ID : V_MPEG4/ISO/AVC
Duration : 1h 32mn
Bit rate : 3 329 Kbps
Width : 1 920 pixels
Height : 1 080 pixels
Display aspect ratio : 16:9
Frame rate mode : Constant
Frame rate : 23.976 fps
Color space : YUV
Chroma subsampling : 4:2:0
Bit depth : 8 bits
Scan type : Progressive
Bits/(Pixel*Frame) : 0.067
Stream size : 2.15 GiB (61%)
Title : Legendary – Tomb of the Dragon 3D (2013)_Rip.-alE13
Writing library : x264 core
Default : No
Forced : No
Color primaries : BT.709
Transfer characteristics : BT.709
Matrix coefficients : BT.709

Audio #1
ID : 2
Format : AC-3
Format/Info : Audio Coding 3
Mode extension : CM (complete main)
Format settings, Endianness : Big
Codec ID : A_AC3
Duration : 1h 32mn
Bit rate mode : Constant
Bit rate : 512 Kbps
Channel(s) : 2 channels
Channel positions : Front: L R
Sampling rate : 48.0 KHz
Bit depth : 16 bits
Compression mode : Lossy
Stream size : 339 MiB (9%)
Title : Legendary Tomb of the Dragon 3D (2013)-alE13_AC3 @ 512 Kbps
Language : Polish

Audio #2
ID : 3
Format : DTS
Format/Info : Digital Theater Systems
Mode : 16
Format settings, Endianness : Big
Codec ID : A_DTS
Duration : 1h 32mn
Bit rate mode : Constant
Bit rate : 1 509 Kbps
Channel(s) : 6 channels
Channel positions : Front: L C R, Side: L R, LFE
Sampling rate : 48.0 KHz
Bit depth : 24 bits
Compression mode : Lossy
Stream size : 998 MiB (28%)
Title : Legendary – Tomb of the Dragon 3D (2013)-alE13_ oryginal_DTS 5.1 @ 1509k
Language : English

Text
ID : 4
Format : VobSub
Muxing mode : zlib
Codec ID : S_VOBSUB
Codec ID/Info : The same subtitle format used on DVDs
Title : Legendary – Tomb of the Dragon 3D (2013)-alE13
Language : Polish

Menu
00:00:00.000 : en:(01)00:00:00:000
00:06:06.157 : en:(02)00:06:06:157
00:12:58.068 : en:(03)00:12:58:068
00:19:15.654 : en:(04)00:19:15:654
00:24:24.629 : en:(05)00:24:24:629
00:30:30.787 : en:(06)00:30:30:787
00:36:59.842 : en:(07)00:36:59:842
00:43:51.754 : en:(08)00:43:51:754
00:49:35.059 : en:(09)00:49:35:055
00:56:49.868 : en:(10)00:56:49:864
01:02:56.026 : en:(11)01:02:56:022
01:09:47.937 : en:(12)01:09:47:933
01:17:02.747 : en:(13)01:17:02:743
01:24:29.026 : en:(14)01:24:29:022

SCREENY

TRAILER

LISTA PLIKÓW

Nazwa: Rozmiar:
Legendary Tomb of the Dragon 3D (2013)-alE13/INFO/Nostalgie 01.jpg 184.25 KB
Legendary Tomb of the Dragon 3D (2013)-alE13/INFO/Torrent downloaded from alE13 torrents at BTScene.org.txt 184.37 KB
Legendary Tomb of the Dragon 3D (2013)-alE13/INFO/Torrent downloaded from demonoid.ph.txt 184.41 KB
Legendary Tomb of the Dragon 3D (2013)-alE13/subtitles/Legendary - Tomb of the Dragon (2013)-alE13.sub 10.11 MB
Legendary Tomb of the Dragon 3D (2013)-alE13/subtitles/Legendary - Tomb of the Dragon (2013)-alE13.srt 10.15 MB
Legendary Tomb of the Dragon 3D (2013)-alE13/subtitles/Legendary - Tomb of the Dragon (2013)-alE13.idx 10.18 MB
Legendary Tomb of the Dragon 3D (2013)-alE13/Legendary - Tomb of the Dragon (2013)-alE13.mkv 3.54 GB
Legendary Tomb of the Dragon 3D (2013)-alE13/txt.jpg 3.54 GB
Legendary Tomb of the Dragon 3D (2013)-alE13/poster.jpg 3.54 GB



  • KOMENTARZE

    Dodaj komentarz

    OGLĄDAJ FILMY I SERIALE ONLINE ZA DARMO!ZOBACZ!
    +