Filmy, gry, aplikacje, muzyka i inne. Najlepsze torrenty w jednym miejscu.

Berlin Station – Sezon 1 [1080p.WEB-DL.H.264.AC3] [Lektor PL]

Data dodania: Styczeń 21, 2018
Dodane przez: kakarotto5555

Kategoria: Filmy z Lektorem, Seriale Zagraniczne, Filmy x264/h264

Ostatnia Aktualizacja: Styczeń 21, 2018

Komentarzy: 0

Ocen ten Torrent:

No votes yet.
Please wait...

Rozmiar: 20.85 GB

Seedów: 1

Leecherów: 0

Liczba pobrań: 36

Aktualizacja Trackerów: Live

ZobaczPobierz

INFO O TORRENCIE

produkcja: Niemcy, USA
gatunek: Thriller
reżyseria: Michaël R. Roskam, Christoph Schrewe, John David Coles
scenariusz: Olen Steinhauer, Larry J. Cohen
zdjęcia: Hagen Bogdanski
muzyka: Reinhold Heil
czas trwania: ok. 49-59 min.

Głównym bohaterem serialu „Berlin Station” jest Daniel Miller. Agent przyjeżdża do niemieckiej rezydentury CIA w Berlinie. Zostaje tam wysłany z tajną misją – musi ustalić, jak doszło do wycieku tajnych informacji, w których posiadaniu jest słynny demaskator o pseudonimie Thomas Shaw. Przewodnikiem Millera po mieście jest zaprawiony w szpiegowskich intrygach weteran, Hector DeJean, który wprowadza go w brutalne realia pracy pod przykrywką, gdzie manipulacje, oszustwa, niebezpieczeństwo i moralne kompromisy są codziennością. Kiedy Daniel zaczyna orientować się w pogmatwanej sytuacji, wpada na trop spisku, który prowadzi go aż do Waszyngtonu. Zaczyna się również zastanawiać, czy jego życie będzie jeszcze takie samo?

Richard Armitage – Daniel Miller
Richard Dillane – Gerald Ellman
Michelle Forbes – Valerie Edwards
Richard Jenkins – Steven Frost
Rhys Ifans – Hector DeJean
Tamlyn Tomita – Sandra Abe
Bernhard Schütz – Hans Richter
Leland Orser – Robert Kirsch

Format : Matroska
Format version : Version 4 / Version 2
File size : 2.08 GiB
Duration : 53 min 26 s
Overall bit rate : 5 581 kb/s
Encoded date : UTC 2017-11-24 23:22:25

Video
ID : 1
Format : AVC
Format/Info : Advanced Video Codec
Format profile : [email protected]
Format settings, CABAC : Yes
Format settings, RefFrames : 4 frames
Codec ID : V_MPEG4/ISO/AVC
Duration : 53 min 26 s
Bit rate : 5 195 kb/s
Width : 1 908 pixels
Height : 1 068 pixels
Display aspect ratio : 16:9
Frame rate mode : Constant
Frame rate : 23.976 (23976/1000) FPS
Color space : YUV
Chroma subsampling : 4:2:0
Bit depth : 8 bits
Scan type : Progressive
Bits/(Pixel*Frame) : 0.106
Stream size : 1.94 GiB (93%)
Color range : Limited
Color primaries : BT.709
Transfer characteristics : BT.709
Matrix coefficients : BT.709

Audio
ID : 2
Format : AC-3
Format/Info : Audio Coding 3
Format settings, Endianness : Big
Codec ID : A_AC3
Duration : 53 min 26 s
Bit rate mode : Constant
Bit rate : 384 kb/s
Channel(s) : 2 channels
Channel positions : Front: L R
Sampling rate : 48.0 kHz
Frame rate : 31.250 FPS (1536 SPF)
Bit depth : 16 bits
Compression mode : Lossy
Stream size : 147 MiB (7%)
Language : Polish
Service kind : Complete Main

SCREENY

TRAILER

LISTA PLIKÓW

Nazwa: Rozmiar:
Berlin Station - Sezon 1 [1080p.WEB-DL.H.264.AC3] [Lektor PL]/Berlin Station S01E01 - Station to Station [1080p.WEB-DL.H.264.AC3] [Lektor PL].mkv 2.08 GB
Berlin Station - Sezon 1 [1080p.WEB-DL.H.264.AC3] [Lektor PL]/Berlin Station S01E02 - Lights Don't Run on Loyalty [1080p.WEB-DL.H.264.AC3] [Lektor PL].mkv 4.17 GB
Berlin Station - Sezon 1 [1080p.WEB-DL.H.264.AC3] [Lektor PL]/Berlin Station S01E03 - Riverrun Dry [1080p.WEB-DL.H.264.AC3] [Lektor PL].mkv 6.29 GB
Berlin Station - Sezon 1 [1080p.WEB-DL.H.264.AC3] [Lektor PL]/Berlin Station S01E04 - By Way of Deception [1080p.WEB-DL.H.264.AC3] [Lektor PL].mkv 8.51 GB
Berlin Station - Sezon 1 [1080p.WEB-DL.H.264.AC3] [Lektor PL]/Berlin Station S01E05 - Unter Druck [1080p.WEB-DL.H.264.AC3] [Lektor PL].mkv 10.56 GB
Berlin Station - Sezon 1 [1080p.WEB-DL.H.264.AC3] [Lektor PL]/Berlin Station S01E06 - Just Decisions [1080p.WEB-DL.H.264.AC3] [Lektor PL].mkv 12.61 GB
Berlin Station - Sezon 1 [1080p.WEB-DL.H.264.AC3] [Lektor PL]/Berlin Station S01E07 - Proof of Life [1080p.WEB-DL.H.264.AC3] [Lektor PL].mkv 14.49 GB
Berlin Station - Sezon 1 [1080p.WEB-DL.H.264.AC3] [Lektor PL]/Berlin Station S01E08 - False Negative [1080p.WEB-DL.H.264.AC3] [Lektor PL].mkv 16.49 GB
Berlin Station - Sezon 1 [1080p.WEB-DL.H.264.AC3] [Lektor PL]/Berlin Station S01E09 - Thomas Shaw [1080p.WEB-DL.H.264.AC3] [Lektor PL].mkv 18.78 GB
Berlin Station - Sezon 1 [1080p.WEB-DL.H.264.AC3] [Lektor PL]/Berlin Station S01E10 - Oratorio Berlin [1080p.WEB-DL.H.264.AC3] [Lektor PL].mkv 20.85 GB



  • KOMENTARZE

    Dodaj komentarz

    OGLĄDAJ FILMY I SERIALE ONLINE ZA DARMO!ZOBACZ!
    +